Universal Access To All Knowledge
Home Donate | Store | Blog | FAQ | Jobs | Volunteer Positions | Contact | Bios | Forums | Projects | Terms, Privacy, & Copyright
Search: Advanced Search
Anonymous User (login or join us)
Upload
Search Results
Results: 1 through 14 of 14 (0.001 secs)
You searched for: collection:"AlexSkolnickTrio"
[etree]Alex Skolnick Trio Live at The Tralf, on 2007-04-11 - Alex Skolnick Trio
01 Still Loving You, 02 Mercury Retrograde, 03 Shades Of Grey, 04 The Lizard, 05 Tom Sawyer, 06 Revelation Mother Earth, 07 Electric Eye, 08 Transformation, 09 Last Day In Paradise, 10 Western Sabbath Stomp
Downloads: 4,641
[etree]Alex Skolnick Trio Live at the Knitting Factory on 2005-06-17 - Alex Skolnick Trio
still loving you transformation fear of flying detroit rock city electric eye
Keywords: Live concert
Downloads: 2,577 5.00 out of 5 stars5.00 out of 5 stars5.00 out of 5 stars5.00 out of 5 stars5.00 out of 5 stars(3 reviews)
[etree]Alex Skolnick Trio Live at The Ale House on 2008-03-15 - Alex Skolnick Trio
intro 0:00 Still Loving You 2:34 Mercury Retrograde 11:00 Detroit Rock City 16:16 The Lizard 26:00 Tom Sawyer 33:21 Last Day in Paradise In 41:59 Western Sabbath Stomp 48:00
Keywords: Jazz; Metal
Downloads: 1,335
[etree]Alex Skolnick Trio Live at The Van Dyck on 2006-08-31 - Alex Skolnick Trio
Setlist Set 1 Still Loving You Transformation Fear of Flying Western Sabbath Practique lo que predicas Detroit Rock City Set 2 Tom Sawyer The Lizard Goodbye to Romance Both Feet In Electric Eye War Pigs First time Western Sabbath, The Lizard, and Practique lo que Predicas were ever played live! 08-31-2006 Schenectady NY, The Van Dyck Restaurant 1. Still Loving You 1. Still Loving You 1. Still Loving You 1...
Downloads: 4,727
[etree]Alex Skolnick Trio Live at Garfield Artworks on 2009-04-24 - Alex Skolnick Trio
Alex Skolnick Trio Garfield Artworks Pittsburgh, PA 2009-04-24 Source: Nakamichi CM-700/CP-702 omnis 'actives' > Samson PM4 > Lunatec V3 (ANSR) > HP-120 @ 16/44.1 Transfer: HP-120 > USB > Soundforge 7.0 > CDWave > FLAC Mic Location/Setup: ~3ft back from stage lip, center, ~3ft, NOS t&t: AudBall 01. Still Lovin' You (Scorpions song) 02. Shades Of Grey 03. Detroit Rock City (Kiss song) 04. Lizard 05...
Downloads: 1,193 5.00 out of 5 stars5.00 out of 5 stars5.00 out of 5 stars5.00 out of 5 stars5.00 out of 5 stars(1 review)
[etree]Alex Skolnick Trio Live at on 2005-08-19 - Alex Skolnick Trio
1) Still Loving You> 2) Transformation 3) Fear of Flying 4) Detroit Rock City 5) Don't Talk to Strangers 6) Scorch 7) Both Feet In 8) Electric Eye
Keywords: Live concert
Downloads: 7,653 4.00 out of 5 stars4.00 out of 5 stars4.00 out of 5 stars4.00 out of 5 stars(1 review)
[etree]Alex Skolnick Trio Live at 9:30 Club on 2010-02-28 - Alex Skolnick Trio
Alex Skolnick Trio 9:30 Club Washington, DC Feb 28, 2010 ** 16-bit/44.1khz ** 01 Song Of The Open Road 02 Detroit Rock City (1) 03 The Lizard 04 Tom Sawyer (2) 05 Electric Eye (3) (1) KISS (2) Rush (3) Judas Priest
Downloads: 1,624
[etree]Live at Upstairs Jazz Bar & Grill on 2008-09-07 - Alex Skolnick Trio
1. Intro 2. Dream On 3. Detroit Rock City 4. Detroit Rock City (part 2) 5. The Lizard 6. Electric Eye 7. Revelation (Mother Earth) 8. Tom Sawyer 9. Last Day in Paradise 10.Western Sabbath Stomp 11.No One Like You 12.Shades of Grey 13.Both Feet In 14.Scorch 15.Goodbye to Romance 16.War Pigs
Keywords: jazz
Downloads: 1,943
[etree]Alex Skolnick Trio Live at Wilbert's Food & Music on 2008-03-21 - Alex Skolnick Trio
TRACK 01 AUDIO TITLE "Intro" PERFORMER "Alex Skolnick Trio" INDEX 01 00:00:00 TRACK 02 AUDIO TITLE "Still Loving You" PERFORMER "Alex Skolnick Trio" INDEX 01 02:58:00 TRACK 03 AUDIO TITLE "Mercury Retrograde" PERFORMER "Alex Skolnick Trio" INDEX 01 13:58:00 TRACK 04 AUDIO TITLE "Detroit Rock City" PERFORMER "Alex Skolnick Trio" INDEX 01 19:05:00 TRACK 05 AUDIO TITLE "The Lizard" PERFORMER "Alex Skolnick Trio" INDEX 01 29:00:00 TRACK 06 AUDIO TITLE "Revelation (Mother Earth)" PERFORMER "Alex Skol...
Keywords: Jazz; Metal
Downloads: 1,853 3.00 out of 5 stars3.00 out of 5 stars3.00 out of 5 stars(1 review)
[etree]Alex Skolnick Trio Live at Apache Cafe on 2005-08-16 - Alex Skolnick Trio

Downloads: 1,418
[etree]Alex Skolnick Trio Live at Garfield Artworks on 2009-04-24 - Alex Skolnick Trio
Alex Skolnick Trio Garfield Artworks Pittsburgh, PA 2009-04-24 Source: Nakamichi CM-1000/CP-101 cards (Sank p48) > Oade Concert Mod PMD-661 (-18db atten.) @ 24bit/44.1k Transfer: PMD-661 > USB > CDWave > Soundforge 7.0 > CDWave > FLAC Mic Location/Setup: ~3ft back from stage lip, center, ~3ft t&t: AudBall 01. Still Lovin' You (Scorpions song) 02. Shades Of Grey 03. Detroit Rock City (Kiss song) 04...
Downloads: 2,477 5.00 out of 5 stars5.00 out of 5 stars5.00 out of 5 stars5.00 out of 5 stars5.00 out of 5 stars(5 reviews)
[etree]Alex Skolnick Trio Live at Elbo Room on 2002-09-13 - Alex Skolnick Trio
Alex Skolnick Trio Elbo Room Chicago, Illinois USA 2002-09-13 Recorded by: mlvcarlos Aud > Core Sound Binaural Mics > Sony MZ-R70 > Sound Forge 9.0 > Traders Little Helper > Flac (level 6) Alex Skolnick - Guitar John Graham-Davis - Acoustic Bass Matt Zebroski - Drums Tracks: 01. No One Like You (Scorpions) 9:07 02. Detroit Rock City (Kiss) 9:35 03. Goodbye To Romance (Ozzy Osbourne) 9:32 04. Still Loving You (Scorpions) 14:51 05...
Keywords: Jazz
Downloads: 1,580
[etree]Alex Skolnick Trio Live at Montage Grille on 2004-10-14 - Alex Skolnick Trio
Alex Skolnick Trio Live from The Montage Grille - Rochester, NY 10-14-04 Band Alex Skolnick - Guitars Nathan Peck - Bass Matt Zebroski - Drums Setlist CD1 Still Loving You Alex's Remarks Transformation Money Dont Talk To Strangers Alex's Remarks Detroit Rock City CD2 Electric Eye Alex's Remarks Fear Of Flying Scorch Alex's Remarks Blackout Encore Applause War Pigs
Keywords: Jazz
Downloads: 2,949
[etree]Alex Skolnick Trio Live at Marquee Theater on 2003-09-06 - Alex Skolnick Trio
1. Highway Star 2. Still Loving You 3. Detroit Rock City 4. Goodbye to Romance 5. Dream On 6. War Pigs
Keywords: Jazz; Metal
Downloads: 1,573
Advanced search

Group results by:

> Relevance
Mediatype
Collection

Refine your search:

Collection
AlexSkolnickTrio
etree

File formats
MP3 files
Any audio file
Movie files
Images

Related collections

etree
AlexSkolnickTrio

Related creators

Alex Skolnick Trio

Related mediatypes

etree

Terms of Use (10 Mar 2001)